website free tracking Nightbooks.2021.초고화질.NF.WEB-DL.x265.10bit.HDR.DDP5.1.Atmos-CM > 영화 > 공유의 바다 바다보아

팝업레이어 알림

block_2.png
 [구글검색] 구글에서 바다보아 검색 - 구글에서 토렌트를 검색하실 때에 검색어 뒤에 바다보아를 꼭 붙여서 검색하세요.     바다보아에서 광고중인 웹에 문제가 있다면 메뉴에 나와 있는 운영자 이메일로 연락 주십시오.     사용자님의 다운로드가 완료될 때까지 저희가 함께하겠습니다. 편안하고 즐거운 시간 되십시오.

Google DuckDuckGo Aol Yahoo Bing Ask 파일썬 파일마루 파일몽 파일비트 Youtube

  

  
Nightbooks.2021.초고화질.NF.WEB-DL.x265.10bit.HDR.DDP5.1.Atmos-CM  직접 다운로드  무료 다운로드  무제한 다운로드  몰래 다운로드
  • 파일 설명:     Screens... (click to enlarge): Infolink -> https://www.imdb.com/title/tt10521144/MediainfoQuote:VideoID : 1Format : HEVCFormat/Info : High Efficiency Video CodingFormat profile : Main [email protected]@MainHDR format : SMPTE ST 2086, HDR10 compatibleCodec ID : V_MPEGH/ISO/HEVCDuration : 1 h 40 minBit rate : 4 262 kb/sWidth : 1 920 pixelsHeight : 1 080 pixelsDisplay aspect ratio : 16:9Frame rate mode : ConstantFrame rate : 23.976 (24000/1001) FPSColor space : YUVChroma subsampling : 4:2:0 (Type 2)Bit depth : 10 bitsBits/(Pixel*Frame) : 0.086Stream size : 3.00 GiB (84%)Default : YesForced : NoColor range : LimitedColor primaries : BT.2020Transfer characteristics : PQMatrix coefficients : BT.2020 non-constantMastering display color primaries : Display P3Mastering display luminance : min: 0.0050 cd/m2, max: 4000 cd/m2Maximum Content Light Level : 10000 cd/m2Maximum Frame-Average Light Level : 2980 cd/m2AudioID : 2Format : E-AC-3 JOCFormat/Info : Enhanced AC-3 with Joint Object CodingCommercial name : Dolby Digital Plus with Dolby AtmosCodec ID : A_EAC3Duration : 1 h 43 minBit rate mode : ConstantBit rate : 768 kb/sChannel(s) : 6 channelsChannel layout : L R C LFE Ls RsSampling rate : 48.0 kHzFrame rate : 31.250 FPS (1536 SPF)Compression mode : LossyStream size : 567 MiB (16%)Title : EnglishLanguage : EnglishService kind : Complete MainDefault : NoForced : NoComplexity index : 16Number of dynamic objects : 15Bed channel count : 1 channelBed channel configuration : LFEText #1ID : 3Format : UTF-8Codec ID : S_TEXT/UTF8Codec ID/Info : UTF-8 Plain TextDuration : 1 h 40 minBit rate : 76 b/sCount of elements : 1129Stream size : 55.7 KiB (0%)Title : ArabicLanguage : ArabicDefault : NoForced : NoText #2ID : 4Format : UTF-8Codec ID : S_TEXT/UTF8Codec ID/Info : UTF-8 Plain TextDuration : 1 h 40 minBit rate : 43 b/sCount of elements : 1095Stream size : 31.7 KiB (0%)Title : Chinese SimplifiedLanguage : ChineseDefault : NoForced : NoText #3ID : 5Format : UTF-8Codec ID : S_TEXT/UTF8Codec ID/Info : UTF-8 Plain TextDuration : 1 h 40 minBit rate : 40 b/sCount of elements : 1091Stream size : 30.0 KiB (0%)Title : Chinese TraditionalLanguage : ChineseDefault : NoForced : NoText #4ID : 6Format : UTF-8Codec ID : S_TEXT/UTF8Codec ID/Info : UTF-8 Plain TextDuration : 1 h 40 minBit rate : 36 b/sCount of elements : 1051Stream size : 26.8 KiB (0%)Title : CzechLanguage : CzechDefault : NoForced : NoText #5ID : 7Format : UTF-8Codec ID : S_TEXT/UTF8Codec ID/Info : UTF-8 Plain TextDuration : 1 h 40 minBit rate : 36 b/sCount of elements : 923Stream size : 27.1 KiB (0%)Title : DanishLanguage : DanishDefault : NoForced : NoText #6ID : 8Format : UTF-8Codec ID : S_TEXT/UTF8Codec ID/Info : UTF-8 Plain TextDuration : 1 h 40 minBit rate : 35 b/sCount of elements : 991Stream size : 26.2 KiB (0%)Title : DutchLanguage : DutchDefault : NoForced : NoText #7ID : 9Format : UTF-8Codec ID : S_TEXT/UTF8Codec ID/Info : UTF-8 Plain TextDuration : 1 h 35 minBit rate : 59 b/sCount of elements : 1514Stream size : 41.5 KiB (0%)Title : English [CC]Language : EnglishDefault : NoForced : NoText #8ID : 10Format : UTF-8Codec ID : S_TEXT/UTF8Codec ID/Info : UTF-8 Plain TextDuration : 1 h 40 minBit rate : 36 b/sCount of elements : 789Stream size : 26.4 KiB (0%)Title : FinnishLanguage : FinnishDefault : NoForced : NoText #9ID : 11Format : UTF-8Codec ID : S_TEXT/UTF8Codec ID/Info : UTF-8 Plain TextDuration : 1 h 40 minBit rate : 34 b/sCount of elements : 923Stream size : 25.0 KiB (0%)Title : FrenchLanguage : FrenchDefault : NoForced : NoText #10ID : 12Format : UTF-8Codec ID : S_TEXT/UTF8Codec ID/Info : UTF-8 Plain TextDuration : 1 h 40 minBit rate : 33 b/sCount of elements : 1030Stream size : 24.8 KiB (0%)Title : GermanLanguage : GermanDefault : NoForced : NoText #11ID : 13Format : UTF-8Codec ID : S_TEXT/UTF8Codec ID/Info : UTF-8 Plain TextDuration : 1 h 40 minBit rate : 60 b/sCount of elements : 1056Stream size : 44.7 KiB (0%)Title : GreekLanguage : GreekDefault : NoForced : NoText #12ID : 14Format : UTF-8Codec ID : S_TEXT/UTF8Codec ID/Info : UTF-8 Plain TextDuration : 1 h 40 minBit rate : 63 b/sCount of elements : 1073Stream size : 46.8 KiB (0%)Title : HebrewLanguage : HebrewDefault : NoForced : NoText #13ID : 15Format : UTF-8Codec ID : S_TEXT/UTF8Codec ID/Info : UTF-8 Plain TextDuration : 1 h 40 minBit rate : 118 b/sCount of elements : 1097Stream size : 86.6 KiB (0%)Title : HindiLanguage : HindiDefault : NoForced : NoText #14ID : 16Format : UTF-8Codec ID : S_TEXT/UTF8Codec ID/Info : UTF-8 Plain TextDuration : 1 h 40 minBit rate : 32 b/sCount of elements : 1014Stream size : 23.9 KiB (0%)Title : CroatianLanguage : CroatianDefault : NoForced : NoText #15ID : 17Format : UTF-8Codec ID : S_TEXT/UTF8Codec ID/Info : UTF-8 Plain TextDuration : 1 h 40 minBit rate : 35 b/sCount of elements : 1069Stream size : 25.9 KiB (0%)Title : HungarianLanguage : HungarianDefault : NoForced : NoText #16ID : 18Format : UTF-8Codec ID : S_TEXT/UTF8Codec ID/Info : UTF-8 Plain TextDuration : 1 h 40 minBit rate : 36 b/sCount of elements : 1093Stream size : 26.5 KiB (0%)Title : IndonesianLanguage : IndonesianDefault : NoForced : NoText #17ID : 19Format : UTF-8Codec ID : S_TEXT/UTF8Codec ID/Info : UTF-8 Plain TextDuration : 1 h 40 minBit rate : 36 b/sCount of elements : 878Stream size : 26.9 KiB (0%)Title : ItalianLanguage : ItalianDefault : NoForced : NoText #18ID : 20Format : UTF-8Codec ID : S_TEXT/UTF8Codec ID/Info : UTF-8 Plain TextDuration : 1 h 40 minBit rate : 43 b/sCount of elements : 1044Stream size : 31.9 KiB (0%)Title : JapaneseLanguage : JapaneseDefault : NoForced : NoText #19ID : 21Format : UTF-8Codec ID : S_TEXT/UTF8Codec ID/Info : UTF-8 Plain TextDuration : 1 h 40 minBit rate : 52 b/sCount of elements : 1097Stream size : 38.4 KiB (0%)Title : KoreanLanguage : KoreanDefault : NoForced : NoText #20ID : 22Format : UTF-8Codec ID : S_TEXT/UTF8Codec ID/Info : UTF-8 Plain TextDuration : 1 h 40 minBit rate : 39 b/sCount of elements : 1075Stream size : 28.8 KiB (0%)Title : MalayLanguage : MalayDefault : NoForced : NoText #21ID : 23Format : UTF-8Codec ID : S_TEXT/UTF8Codec ID/Info : UTF-8 Plain TextDuration : 1 h 40 minBit rate : 33 b/sCount of elements : 921Stream size : 24.4 KiB (0%)Title : Norwegian BokmalLanguage : Norwegian BokmalDefault : NoForced : NoText #22ID : 24Format : UTF-8Codec ID : S_TEXT/UTF8Codec ID/Info : UTF-8 Plain TextDuration : 1 h 40 minBit rate : 34 b/sCount of elements : 1021Stream size : 25.3 KiB (0%)Title : PolishLanguage : PolishDefault : NoForced : NoText #23ID : 25Format : UTF-8Codec ID : S_TEXT/UTF8Codec ID/Info : UTF-8 Plain TextDuration : 1 h 40 minBit rate : 35 b/sCount of elements : 1070Stream size : 26.0 KiB (0%)Title : Brazilian PortugueseLanguage : PortugueseDefault : NoForced : NoText #24ID : 26Format : UTF-8Codec ID : S_TEXT/UTF8Codec ID/Info : UTF-8 Plain TextDuration : 1 h 40 minBit rate : 36 b/sCount of elements : 999Stream size : 26.6 KiB (0%)Title : PortugueseLanguage : PortugueseDefault : NoForced : NoText #25ID : 27Format : UTF-8Codec ID : S_TEXT/UTF8Codec ID/Info : UTF-8 Plain TextDuration : 1 h 40 minBit rate : 43 b/sCount of elements : 1072Stream size : 31.7 KiB (0%)Title : RomanianLanguage : RomanianDefault : NoForced : NoText #26ID : 28Format : UTF-8Codec ID : S_TEXT/UTF8Codec ID/Info : UTF-8 Plain TextDuration : 1 h 40 minBit rate : 56 b/sCount of elements : 1064Stream size : 41.8 KiB (0%)Title : RussianLanguage : RussianDefault : NoForced : NoText #27ID : 29Format : UTF-8Codec ID : S_TEXT/UTF8Codec ID/Info : UTF-8 Plain TextDuration : 1 h 40 minBit rate : 35 b/sCount of elements : 1036Stream size : 26.2 KiB (0%)Title : European SpanishLanguage : SpanishDefault : NoForced : NoText #28ID : 30Format : UTF-8Codec ID : S_TEXT/UTF8Codec ID/Info : UTF-8 Plain TextDuration : 1 h 40 minBit rate : 36 b/sCount of elements : 933Stream size : 26.7 KiB (0%)Title : SpanishLanguage : SpanishDefault : NoForced : NoText #29ID : 31Format : UTF-8Codec ID : S_TEXT/UTF8Codec ID/Info : UTF-8 Plain TextDuration : 1 h 40 minBit rate : 35 b/sCount of elements : 950Stream size : 25.9 KiB (0%)Title : SwedishLanguage : SwedishDefault : NoForced : NoText #30ID : 32Format : UTF-8Codec ID : S_TEXT/UTF8Codec ID/Info : UTF-8 Plain TextDuration : 1 h 40 minBit rate : 99 b/sCount of elements : 1094Stream size : 73.2 KiB (0%)Title : ThaiLanguage : ThaiDefault : NoForced : NoText #31ID : 33Format : UTF-8Codec ID : S_TEXT/UTF8Codec ID/Info : UTF-8 Plain TextDuration : 1 h 40 minBit rate : 34 b/sCount of elements : 1084Stream size : 25.6 KiB (0%)Title : TurkishLanguage : TurkishDefault : NoForced : NoText #32ID : 34Format : UTF-8Codec ID : S_TEXT/UTF8Codec ID/Info : UTF-8 Plain TextDuration : 1 h 40 minBit rate : 59 b/sCount of elements : 986Stream size : 43.3 KiB (0%)Title : UkrainianLanguage : UkrainianDefault : NoForced : NoText #33ID : 35Format : UTF-8Codec ID : S_TEXT/UTF8Codec ID/Info : UTF-8 Plain TextDuration : 1 h 40 minBit rate : 49 b/sCount of elements : 1019Stream size : 36.0 KiB (0%)Title : VietnameseLanguage : VietnameseDefault : NoForced : No Nightbooks.2021.초고화질.NF.WEB-DL.x265.10bit.HDR.DDP5.1.Atmos-CM…
  • 인기 연관 검색어 구글 검색:    
  • 관련 자료(가나다순):    Nightbooks (2021) FullHD 초고화질 H264 Ita Eng AC3 5 1 Multisub - r…    나이트북밤의 이야기꾼 Nightbooks 2021 초고화질 KOR HEVC AAC-JTC
  • 관련 자료(시간순):    Nightbooks 2021 HDRip XviD AC3-EVO TGx    나이트북밤의 이야기꾼 (크리스틴 리터, 리디야 주잇 / 데이비드 야로베스키 감독) Nightbooks 2021 초…
  • 같은 시각 자료:    Nightbooks.2021.WEBRip.x264-ION10    My.Son.2021.초고화질.WEB.H264-NAISU
모바일/PC로 초고화질 실시간 다시보기 합법으로 받을 수 있는 유일한 방법 토렌트에서 다운로드가 안될 때 토렌트에서 찾는 파일이 없을 때

Nightbooks.2021.초고화질.NF.WEB-DL.x265.10bit.HDR.DDP5.1.Atmos-CM
댓글 0 조회 10 인증 0 신고 0



Screens... (click to enlarge):








Infolink -> https://www.imdb.com/title/tt10521144/

Mediainfo

Quote:

Video
ID : 1
Format : HEVC
Format/Info : High Efficiency Video Coding
Format profile : Main [email protected]@Main
HDR format : SMPTE ST 2086, HDR10 compatible
Codec ID : V_MPEGH/ISO/HEVC
Duration : 1 h 40 min
Bit rate : 4 262 kb/s
Width : 1 920 pixels
Height : 1 080 pixels
Display aspect ratio : 16:9
Frame rate mode : Constant
Frame rate : 23.976 (24000/1001) FPS
Color space : YUV
Chroma subsampling : 4:2:0 (Type 2)
Bit depth : 10 bits
Bits/(Pixel*Frame) : 0.086
Stream size : 3.00 GiB (84%)
Default : Yes
Forced : No
Color range : Limited
Color primaries : BT.2020
Transfer characteristics : PQ
Matrix coefficients : BT.2020 non-constant
Mastering display color primaries : Display P3
Mastering display luminance : min: 0.0050 cd/m2, max: 4000 cd/m2
Maximum Content Light Level : 10000 cd/m2
Maximum Frame-Average Light Level : 2980 cd/m2

Audio
ID : 2
Format : E-AC-3 JOC
Format/Info : Enhanced AC-3 with Joint Object Coding
Commercial name : Dolby Digital Plus with Dolby Atmos
Codec ID : A_EAC3
Duration : 1 h 43 min
Bit rate mode : Constant
Bit rate : 768 kb/s
Channel(s) : 6 channels
Channel layout : L R C LFE Ls Rs
Sampling rate : 48.0 kHz
Frame rate : 31.250 FPS (1536 SPF)
Compression mode : Lossy
Stream size : 567 MiB (16%)
Title : English
Language : English
Service kind : Complete Main
Default : No
Forced : No
Complexity index : 16
Number of dynamic objects : 15
Bed channel count : 1 channel
Bed channel configuration : LFE

Text #1
ID : 3
Format : UTF-8
Codec ID : S_TEXT/UTF8
Codec ID/Info : UTF-8 Plain Text
Duration : 1 h 40 min
Bit rate : 76 b/s
Count of elements : 1129
Stream size : 55.7 KiB (0%)
Title : Arabic
Language : Arabic
Default : No
Forced : No

Text #2
ID : 4
Format : UTF-8
Codec ID : S_TEXT/UTF8
Codec ID/Info : UTF-8 Plain Text
Duration : 1 h 40 min
Bit rate : 43 b/s
Count of elements : 1095
Stream size : 31.7 KiB (0%)
Title : Chinese Simplified
Language : Chinese
Default : No
Forced : No

Text #3
ID : 5
Format : UTF-8
Codec ID : S_TEXT/UTF8
Codec ID/Info : UTF-8 Plain Text
Duration : 1 h 40 min
Bit rate : 40 b/s
Count of elements : 1091
Stream size : 30.0 KiB (0%)
Title : Chinese Traditional
Language : Chinese
Default : No
Forced : No

Text #4
ID : 6
Format : UTF-8
Codec ID : S_TEXT/UTF8
Codec ID/Info : UTF-8 Plain Text
Duration : 1 h 40 min
Bit rate : 36 b/s
Count of elements : 1051
Stream size : 26.8 KiB (0%)
Title : Czech
Language : Czech
Default : No
Forced : No

Text #5
ID : 7
Format : UTF-8
Codec ID : S_TEXT/UTF8
Codec ID/Info : UTF-8 Plain Text
Duration : 1 h 40 min
Bit rate : 36 b/s
Count of elements : 923
Stream size : 27.1 KiB (0%)
Title : Danish
Language : Danish
Default : No
Forced : No

Text #6
ID : 8
Format : UTF-8
Codec ID : S_TEXT/UTF8
Codec ID/Info : UTF-8 Plain Text
Duration : 1 h 40 min
Bit rate : 35 b/s
Count of elements : 991
Stream size : 26.2 KiB (0%)
Title : Dutch
Language : Dutch
Default : No
Forced : No

Text #7
ID : 9
Format : UTF-8
Codec ID : S_TEXT/UTF8
Codec ID/Info : UTF-8 Plain Text
Duration : 1 h 35 min
Bit rate : 59 b/s
Count of elements : 1514
Stream size : 41.5 KiB (0%)
Title : English [CC]
Language : English
Default : No
Forced : No

Text #8
ID : 10
Format : UTF-8
Codec ID : S_TEXT/UTF8
Codec ID/Info : UTF-8 Plain Text
Duration : 1 h 40 min
Bit rate : 36 b/s
Count of elements : 789
Stream size : 26.4 KiB (0%)
Title : Finnish
Language : Finnish
Default : No
Forced : No

Text #9
ID : 11
Format : UTF-8
Codec ID : S_TEXT/UTF8
Codec ID/Info : UTF-8 Plain Text
Duration : 1 h 40 min
Bit rate : 34 b/s
Count of elements : 923
Stream size : 25.0 KiB (0%)
Title : French
Language : French
Default : No
Forced : No

Text #10
ID : 12
Format : UTF-8
Codec ID : S_TEXT/UTF8
Codec ID/Info : UTF-8 Plain Text
Duration : 1 h 40 min
Bit rate : 33 b/s
Count of elements : 1030
Stream size : 24.8 KiB (0%)
Title : German
Language : German
Default : No
Forced : No

Text #11
ID : 13
Format : UTF-8
Codec ID : S_TEXT/UTF8
Codec ID/Info : UTF-8 Plain Text
Duration : 1 h 40 min
Bit rate : 60 b/s
Count of elements : 1056
Stream size : 44.7 KiB (0%)
Title : Greek
Language : Greek
Default : No
Forced : No

Text #12
ID : 14
Format : UTF-8
Codec ID : S_TEXT/UTF8
Codec ID/Info : UTF-8 Plain Text
Duration : 1 h 40 min
Bit rate : 63 b/s
Count of elements : 1073
Stream size : 46.8 KiB (0%)
Title : Hebrew
Language : Hebrew
Default : No
Forced : No

Text #13
ID : 15
Format : UTF-8
Codec ID : S_TEXT/UTF8
Codec ID/Info : UTF-8 Plain Text
Duration : 1 h 40 min
Bit rate : 118 b/s
Count of elements : 1097
Stream size : 86.6 KiB (0%)
Title : Hindi
Language : Hindi
Default : No
Forced : No

Text #14
ID : 16
Format : UTF-8
Codec ID : S_TEXT/UTF8
Codec ID/Info : UTF-8 Plain Text
Duration : 1 h 40 min
Bit rate : 32 b/s
Count of elements : 1014
Stream size : 23.9 KiB (0%)
Title : Croatian
Language : Croatian
Default : No
Forced : No

Text #15
ID : 17
Format : UTF-8
Codec ID : S_TEXT/UTF8
Codec ID/Info : UTF-8 Plain Text
Duration : 1 h 40 min
Bit rate : 35 b/s
Count of elements : 1069
Stream size : 25.9 KiB (0%)
Title : Hungarian
Language : Hungarian
Default : No
Forced : No

Text #16
ID : 18
Format : UTF-8
Codec ID : S_TEXT/UTF8
Codec ID/Info : UTF-8 Plain Text
Duration : 1 h 40 min
Bit rate : 36 b/s
Count of elements : 1093
Stream size : 26.5 KiB (0%)
Title : Indonesian
Language : Indonesian
Default : No
Forced : No

Text #17
ID : 19
Format : UTF-8
Codec ID : S_TEXT/UTF8
Codec ID/Info : UTF-8 Plain Text
Duration : 1 h 40 min
Bit rate : 36 b/s
Count of elements : 878
Stream size : 26.9 KiB (0%)
Title : Italian
Language : Italian
Default : No
Forced : No

Text #18
ID : 20
Format : UTF-8
Codec ID : S_TEXT/UTF8
Codec ID/Info : UTF-8 Plain Text
Duration : 1 h 40 min
Bit rate : 43 b/s
Count of elements : 1044
Stream size : 31.9 KiB (0%)
Title : Japanese
Language : Japanese
Default : No
Forced : No

Text #19
ID : 21
Format : UTF-8
Codec ID : S_TEXT/UTF8
Codec ID/Info : UTF-8 Plain Text
Duration : 1 h 40 min
Bit rate : 52 b/s
Count of elements : 1097
Stream size : 38.4 KiB (0%)
Title : Korean
Language : Korean
Default : No
Forced : No

Text #20
ID : 22
Format : UTF-8
Codec ID : S_TEXT/UTF8
Codec ID/Info : UTF-8 Plain Text
Duration : 1 h 40 min
Bit rate : 39 b/s
Count of elements : 1075
Stream size : 28.8 KiB (0%)
Title : Malay
Language : Malay
Default : No
Forced : No

Text #21
ID : 23
Format : UTF-8
Codec ID : S_TEXT/UTF8
Codec ID/Info : UTF-8 Plain Text
Duration : 1 h 40 min
Bit rate : 33 b/s
Count of elements : 921
Stream size : 24.4 KiB (0%)
Title : Norwegian Bokmal
Language : Norwegian Bokmal
Default : No
Forced : No

Text #22
ID : 24
Format : UTF-8
Codec ID : S_TEXT/UTF8
Codec ID/Info : UTF-8 Plain Text
Duration : 1 h 40 min
Bit rate : 34 b/s
Count of elements : 1021
Stream size : 25.3 KiB (0%)
Title : Polish
Language : Polish
Default : No
Forced : No

Text #23
ID : 25
Format : UTF-8
Codec ID : S_TEXT/UTF8
Codec ID/Info : UTF-8 Plain Text
Duration : 1 h 40 min
Bit rate : 35 b/s
Count of elements : 1070
Stream size : 26.0 KiB (0%)
Title : Brazilian Portuguese
Language : Portuguese
Default : No
Forced : No

Text #24
ID : 26
Format : UTF-8
Codec ID : S_TEXT/UTF8
Codec ID/Info : UTF-8 Plain Text
Duration : 1 h 40 min
Bit rate : 36 b/s
Count of elements : 999
Stream size : 26.6 KiB (0%)
Title : Portuguese
Language : Portuguese
Default : No
Forced : No

Text #25
ID : 27
Format : UTF-8
Codec ID : S_TEXT/UTF8
Codec ID/Info : UTF-8 Plain Text
Duration : 1 h 40 min
Bit rate : 43 b/s
Count of elements : 1072
Stream size : 31.7 KiB (0%)
Title : Romanian
Language : Romanian
Default : No
Forced : No

Text #26
ID : 28
Format : UTF-8
Codec ID : S_TEXT/UTF8
Codec ID/Info : UTF-8 Plain Text
Duration : 1 h 40 min
Bit rate : 56 b/s
Count of elements : 1064
Stream size : 41.8 KiB (0%)
Title : Russian
Language : Russian
Default : No
Forced : No

Text #27
ID : 29
Format : UTF-8
Codec ID : S_TEXT/UTF8
Codec ID/Info : UTF-8 Plain Text
Duration : 1 h 40 min
Bit rate : 35 b/s
Count of elements : 1036
Stream size : 26.2 KiB (0%)
Title : European Spanish
Language : Spanish
Default : No
Forced : No

Text #28
ID : 30
Format : UTF-8
Codec ID : S_TEXT/UTF8
Codec ID/Info : UTF-8 Plain Text
Duration : 1 h 40 min
Bit rate : 36 b/s
Count of elements : 933
Stream size : 26.7 KiB (0%)
Title : Spanish
Language : Spanish
Default : No
Forced : No

Text #29
ID : 31
Format : UTF-8
Codec ID : S_TEXT/UTF8
Codec ID/Info : UTF-8 Plain Text
Duration : 1 h 40 min
Bit rate : 35 b/s
Count of elements : 950
Stream size : 25.9 KiB (0%)
Title : Swedish
Language : Swedish
Default : No
Forced : No

Text #30
ID : 32
Format : UTF-8
Codec ID : S_TEXT/UTF8
Codec ID/Info : UTF-8 Plain Text
Duration : 1 h 40 min
Bit rate : 99 b/s
Count of elements : 1094
Stream size : 73.2 KiB (0%)
Title : Thai
Language : Thai
Default : No
Forced : No

Text #31
ID : 33
Format : UTF-8
Codec ID : S_TEXT/UTF8
Codec ID/Info : UTF-8 Plain Text
Duration : 1 h 40 min
Bit rate : 34 b/s
Count of elements : 1084
Stream size : 25.6 KiB (0%)
Title : Turkish
Language : Turkish
Default : No
Forced : No

Text #32
ID : 34
Format : UTF-8
Codec ID : S_TEXT/UTF8
Codec ID/Info : UTF-8 Plain Text
Duration : 1 h 40 min
Bit rate : 59 b/s
Count of elements : 986
Stream size : 43.3 KiB (0%)
Title : Ukrainian
Language : Ukrainian
Default : No
Forced : No

Text #33
ID : 35
Format : UTF-8
Codec ID : S_TEXT/UTF8
Codec ID/Info : UTF-8 Plain Text
Duration : 1 h 40 min
Bit rate : 49 b/s
Count of elements : 1019
Stream size : 36.0 KiB (0%)
Title : Vietnamese
Language : Vietnamese
Default : No
Forced : No

Nightbooks.2021.초고화질.NF.WEB-DL.x265.10bit.HDR.DDP5.1.Atmos-CM

번역하기: 한국 한국어


<< 이 게시판에서 관련된 자료 목록 >>
0 Comments     0.0 / 0
 [구글검색] 구글에서 바다보아 검색 - 구글에서 토렌트를 검색하실 때에 검색어 뒤에 바다보아를 꼭 붙여서 검색하세요.     바다보아에서 광고중인 웹에 문제가 있다면 메뉴에 나와 있는 운영자 이메일로 연락 주십시오.     사용자님의 다운로드가 완료될 때까지 저희가 함께하겠습니다. 편안하고 즐거운 시간 되십시오.

Google DuckDuckGo Aol Yahoo Bing Ask 파일썬 파일마루 파일몽 파일비트 Youtube

  

  

IMFORMATION STORE

상단으로 가운데로 하단으로