website free tracking The.Power.of.the.Dog.2021.SCREENER.HDRip.XviD.B4ND1T69 > 영화 > 공유의 바다 바다보아

팝업레이어 알림

block_2.png
 [구글검색] 구글에서 바다보아 검색 - 구글에서 토렌트를 검색하실 때에 검색어 뒤에 바다보아를 꼭 붙여서 검색하세요.     바다보아에서 광고중인 웹에 문제가 있다면 메뉴에 나와 있는 운영자 이메일로 연락 주십시오.     사용자님의 다운로드가 완료될 때까지 저희가 함께하겠습니다. 편안하고 즐거운 시간 되십시오.

Google DuckDuckGo Aol Yahoo Bing Ask 파일썬 파일마루 파일몽 파일비트 Youtube

  

  
The.Power.of.the.Dog.2021.SCREENER.HDRip.XviD.B4ND1T69  직접 다운로드  무료 다운로드  무제한 다운로드  몰래 다운로드
  • 파일 설명:     Director: Jane Campion Writers: Jane Campion, Thomas Savage(based on the novel by) Stars: Benedict Cumberbatch, Kirsten Dunst, Jesse Plemons Plot/Story: Charismatic rancher Phil Burbank inspires fear and awe in those around him. When his brother brings home a new wife and her son, Phil torments them until he finds himself exposed to the possibility of love. General Complete name : The.Power.of.the.Dog.2021.SCREENER.HDRip.XviD.B4ND1T69.avi Format : AVI Format/Info : Audio Video Interleave File size : 818 MiB Duration : 2 h 6 min Overall bit rate : 904 kb/s Subtitles : Yes...Included Video ID : 0 Format : MPEG-4 Visual Format profile : Advanced [email protected] Format settings, BVOP : 2 Format settings, QPel : No Format settings, GMC : No warppoints Format settings, Matrix : Default (H.263) Codec ID : XVID Codec ID/Hint : XviD Duration : 2 h 6 min Bit rate : 763 kb/s Width : 720 pixels Height : 304 pixels Display aspect ratio : 2.35:1 Frame rate : 23.976 (24000/1001) FPS Color space : YUV Chroma subsampling : 4:2:0 Bit depth : 8 bits Scan type : Progressive Compression mode : Lossy Bits/(Pixel*Frame) : 0.145 Stream size : 690 MiB (84%) Writing library : XviD 64 Audio ID : 1 Format : MPEG Audio Format version : Version 1 Format profile : Layer 3 Codec ID : 55 Codec ID/Hint : MP3 Duration : 2 h 6 min Bit rate mode : Constant Bit rate : 128 kb/s Channel(s) : 2 channels Sampling rate : 48.0 kHz Compression mode : Lossy Stream size : 116 MiB (14%) Alignment : Aligned on interleaves Interleave, duration : 24 ms (0.58 video frame) Screenshots: The.Power.of.the.Dog.2021.SCREENER.HDRip.XviD.B4ND1T69 Director: Jane Campion Writers: Jane Campion, Thomas Savage(based on the novel by) Stars: Benedict Cumberbatch, Kirsten Dunst, Jesse Plemons Plot/Story: Charismatic rancher Phil Burbank inspires fear and awe in those around him. When his brother brings home a new wife and her son, Phil torments them until he finds himself exposed to the possibility of love. General Complete name : The.Power.of.the.Dog.2021.SCREENER.HDRip.XviD.B4ND1T69.avi Format : AVI Format/Info : Audio Video Interleave File size : 818 MiB Duration : 2 h 6 min Overall bit rate : 904 kb/s Subtitles : Yes...Included Video ID : 0 Format : MPEG-4 Visual Format profile : Advanced [email protected] Format settings, BVOP : 2 Format settings, QPel : No Format settings, GMC : No warppoints Format settings, Matrix : Default (H.263) Codec ID : XVID Codec ID/Hint : XviD Duration : 2 h 6 min Bit rate : 763 kb/s Width : 720 pixels Height : 304 pixels Display aspect ratio : 2.35:1 Frame rate : 23.976 (24000/1001) FPS Color space : YUV Chroma subsampling : 4:2:0 Bit depth : 8 bits Scan type : Progressive Compression mode : Lossy Bits/(Pixel*Frame) : 0.145 Stream size : 690 MiB (84%) Writing library : XviD 64 Audio ID : 1 Format : MPEG Audio Format version : Version 1 Format profile : Layer 3 Codec ID : 55 Codec ID/Hint : MP3 Duration : 2 h 6 min Bit rate mode : Constant Bit rate : 128 kb/s Channel(s) : 2 channels Sampling rate : 48.0 kHz Compression mode : Lossy Stream size : 116 MiB (14%) Alignment : Aligned on interleaves Interleave, duration : 24 ms (0.58 video frame) Screenshots: Please Seed For As Long As Possible Or At Least 1:1 Ratio...Thanks Enjoy Peeps The.Power.of.the.Dog.2021.SCREENER.HDRip.XviD.B4ND1T69…
  • 인기 연관 검색어 구글 검색:    TheMandalorian-Se 토렌트    The 토렌트    
  • 관련 자료(가나다순):    "Manos": The Hands of Fate (1966) RiffTrax triple audio 고화질 10b…    힛츠빌 Hitsville: The Making of Motown - 바다보아
  • 관련 자료(시간순):    더 넌 The Nun 2018 초고화질 KOR FHDRip H264 AAC-H2O - 바다보아    Last Man Standing: Suge Knight and the Murders of Biggie Tupac
  • 같은 시각 자료:    Moonbound.2021.초고화질.WEB-DL.DD5.1.H.264-EVO[TGx]    Bad.Candy.2021.WEBRip.600MB.h264.MP4-Microflix[TGx]
모바일/PC로 초고화질 실시간 다시보기 합법으로 받을 수 있는 유일한 방법 토렌트에서 다운로드가 안될 때 토렌트에서 찾는 파일이 없을 때

The.Power.of.the.Dog.2021.SCREENER.HDRip.XviD.B4ND1T69
댓글 0 조회 6 인증 0 신고 0

Power-of-the-Dog-poster.jpg

Director: Jane Campion
Writers: Jane Campion, Thomas Savage(based on the novel by)
Stars: Benedict Cumberbatch, Kirsten Dunst, Jesse Plemons

Plot/Story:
Charismatic rancher Phil Burbank inspires fear and awe in those around him. When his brother brings home a new wife and her son, Phil torments them until he finds himself exposed to the possibility of love.

General
Complete name : The.Power.of.the.Dog.2021.SCREENER.HDRip.XviD.B4ND1T69.avi
Format : AVI
Format/Info : Audio Video Interleave
File size : 818 MiB
Duration : 2 h 6 min
Overall bit rate : 904 kb/s
Subtitles : Yes...Included

Video
ID : 0
Format : MPEG-4 Visual
Format profile : Advanced [email protected]
Format settings, BVOP : 2
Format settings, QPel : No
Format settings, GMC : No warppoints
Format settings, Matrix : Default (H.263)
Codec ID : XVID
Codec ID/Hint : XviD
Duration : 2 h 6 min
Bit rate : 763 kb/s
Width : 720 pixels
Height : 304 pixels
Display aspect ratio : 2.35:1
Frame rate : 23.976 (24000/1001) FPS
Color space : YUV
Chroma subsampling : 4:2:0
Bit depth : 8 bits
Scan type : Progressive
Compression mode : Lossy
Bits/(Pixel*Frame) : 0.145
Stream size : 690 MiB (84%)
Writing library : XviD 64

Audio
ID : 1
Format : MPEG Audio
Format version : Version 1
Format profile : Layer 3
Codec ID : 55
Codec ID/Hint : MP3
Duration : 2 h 6 min
Bit rate mode : Constant
Bit rate : 128 kb/s
Channel(s) : 2 channels
Sampling rate : 48.0 kHz
Compression mode : Lossy
Stream size : 116 MiB (14%)
Alignment : Aligned on interleaves
Interleave, duration : 24 ms (0.58 video frame)

Screenshots:

power-dog-scr-1.png
power-dog-scr-2.png
power-dog-scr-3.png
power-dog-scr-4.png
power-dog-scr-5.png
power-dog-scr-6.png
power-dog-scr-7.png
power-dog-scr-8.png

The.Power.of.the.Dog.2021.SCREENER.HDRip.XviD.B4ND1T69

Power-of-the-Dog-poster.jpg

Director: Jane Campion
Writers: Jane Campion, Thomas Savage(based on the novel by)
Stars: Benedict Cumberbatch, Kirsten Dunst, Jesse Plemons

Plot/Story:
Charismatic rancher Phil Burbank inspires fear and awe in those around him. When his brother brings home a new wife and her son, Phil torments them until he finds himself exposed to the possibility of love.

General
Complete name : The.Power.of.the.Dog.2021.SCREENER.HDRip.XviD.B4ND1T69.avi
Format : AVI
Format/Info : Audio Video Interleave
File size : 818 MiB
Duration : 2 h 6 min
Overall bit rate : 904 kb/s
Subtitles : Yes...Included

Video
ID : 0
Format : MPEG-4 Visual
Format profile : Advanced [email protected]
Format settings, BVOP : 2
Format settings, QPel : No
Format settings, GMC : No warppoints
Format settings, Matrix : Default (H.263)
Codec ID : XVID
Codec ID/Hint : XviD
Duration : 2 h 6 min
Bit rate : 763 kb/s
Width : 720 pixels
Height : 304 pixels
Display aspect ratio : 2.35:1
Frame rate : 23.976 (24000/1001) FPS
Color space : YUV
Chroma subsampling : 4:2:0
Bit depth : 8 bits
Scan type : Progressive
Compression mode : Lossy
Bits/(Pixel*Frame) : 0.145
Stream size : 690 MiB (84%)
Writing library : XviD 64

Audio
ID : 1
Format : MPEG Audio
Format version : Version 1
Format profile : Layer 3
Codec ID : 55
Codec ID/Hint : MP3
Duration : 2 h 6 min
Bit rate mode : Constant
Bit rate : 128 kb/s
Channel(s) : 2 channels
Sampling rate : 48.0 kHz
Compression mode : Lossy
Stream size : 116 MiB (14%)
Alignment : Aligned on interleaves
Interleave, duration : 24 ms (0.58 video frame)

Screenshots:

power-dog-scr-1.png
power-dog-scr-2.png
power-dog-scr-3.png
power-dog-scr-4.png
power-dog-scr-5.png
power-dog-scr-6.png
power-dog-scr-7.png
power-dog-scr-8.png

Please Seed For As Long As Possible
Or At Least 1:1 Ratio...Thanks
Enjoy Peeps

The.Power.of.the.Dog.2021.SCREENER.HDRip.XviD.B4ND1T69

번역하기: 한국 한국어


<< 이 게시판에서 관련된 자료 목록 >>
0 Comments     0.0 / 0
 [구글검색] 구글에서 바다보아 검색 - 구글에서 토렌트를 검색하실 때에 검색어 뒤에 바다보아를 꼭 붙여서 검색하세요.     바다보아에서 광고중인 웹에 문제가 있다면 메뉴에 나와 있는 운영자 이메일로 연락 주십시오.     사용자님의 다운로드가 완료될 때까지 저희가 함께하겠습니다. 편안하고 즐거운 시간 되십시오.

Google DuckDuckGo Aol Yahoo Bing Ask 파일썬 파일마루 파일몽 파일비트 Youtube

  

  

IMFORMATION STORE

상단으로 가운데로 하단으로