website free tracking American.Crime.Story.S03E02.고화질.WEB.h264-GOSSIP > 외국티비 > 공유의 바다 바다보아

팝업레이어 알림

block_2.png
 [구글검색] 구글에서 바다보아 검색 - 구글에서 토렌트를 검색하실 때에 검색어 뒤에 바다보아를 꼭 붙여서 검색하세요.     바다보아에서 광고중인 웹에 문제가 있다면 메뉴에 나와 있는 운영자 이메일로 연락 주십시오.     사용자님의 다운로드가 완료될 때까지 저희가 함께하겠습니다. 편안하고 즐거운 시간 되십시오.

파일마루

  

  
American.Crime.Story.S03E02.고화질.WEB.h264-GOSSIP  직접 다운로드  무료 다운로드  무제한 다운로드  초고속 다운로드
  • 파일 설명:     Screens... (click to enlarge): presents American.Crime.Story.S03E02.고화질.WEB.h264-GOSSIP date......: 15/09/2021 size......: 1.25 GiB runtime...: 1 h 0 min resolution: 고화질 bitrate...: 2 327 kb/s audio.....: (English) E-AC-3 6ch 640 kb/s subs......: English url.......: https://www.tvmaze.com/shows/2029/american-crime-story They gossip this is a quality release!Infolink -> https://www.imdb.com/title/tt2788432/Quote:MediainfoVideoID : 1Format : AVCFormat/Info : Advanced Video CodecFormat profile : [email protected]Format settings : CABAC / 4 Ref FramesFormat settings, CABAC : YesFormat settings, Reference frames : 4 framesCodec ID : V_MPEG4/ISO/AVCDuration : 1 h 0 minBit rate mode : ConstantBit rate : 2 327 kb/sNominal bit rate : 6 000 kb/sWidth : 1 280 pixelsHeight : 720 pixelsDisplay aspect ratio : 16:9Frame rate mode : ConstantFrame rate : 23.976 (23976/1000) FPSOriginal frame rate : 23.976 (24000/1001) FPSColor space : YUVChroma subsampling : 4:2:0Bit depth : 8 bitsScan type : ProgressiveBits/(Pixel*Frame) : 0.105Stream size : 1 001 MiB (78%)Writing library : AVC CodingDefault : YesForced : NoColor range : LimitedColor primaries : BT.709Transfer characteristics : BT.709Matrix coefficients : BT.709AudioID : 2Format : E-AC-3Format/Info : Enhanced AC-3Commercial name : Dolby Digital PlusCodec ID : A_EAC3Duration : 1 h 0 minBit rate mode : ConstantBit rate : 640 kb/sChannel(s) : 6 channelsChannel layout : L R C LFE Ls RsSampling rate : 48.0 kHzFrame rate : 31.250 FPS (1536 SPF)Bit depth : 32 bitsCompression mode : LossyDelay relative to video : -2 s 12 msStream size : 275 MiB (22%)Language : EnglishService kind : Complete MainDefault : YesForced : NoTextID : 3Format : UTF-8Codec ID : S_TEXT/UTF8Codec ID/Info : UTF-8 Plain TextDuration : 1 h 0 minBit rate : 80 b/sCount of elements : 1190Stream size : 35.6 KiB (0%)Title : EnglishLanguage : EnglishDefault : YesForced : No American.Crime.Story.S03E02.고화질.WEB.h264-GOSSIP…
  • 인기 연관 검색어 구글 검색:    
  • 관련 자료(가나다순):    All American 2018 Season 3 Complete 고화질 AMZN WEBRip x264 i_c    WWE NXT 2021 07 06 The Great American Bash HDTV x264-NWCHD
  • 관련 자료(시간순):    American Dad S17E07 Into the Woods 초고화질 AMZN WEBRip DDP5 1 x264…    American Horror Story (2011) - S10E05 (초고화질 AMZN WEB-DL x265 HE…
  • 같은 시각 자료:    What.If.2021.S01E06.WEB.H264-ShortRips    What.If.2021.S01E06.2160p.WEB-DL.DDP5.1.Atmos.DV.MKV.x265-FLUX
모바일로 고화질 실시간 다시보기 합법으로 받을 수 있는 유일한 방법 토렌트에서 다운로드가 안될 때 토렌트에서 찾는 파일이 없을 때

American.Crime.Story.S03E02.고화질.WEB.h264-GOSSIP
댓글 0 조회 3 인증 0 신고 0

Screens... (click to enlarge):





presents

American.Crime.Story.S03E02.고화질.WEB.h264-GOSSIP

date......: 15/09/2021
size......: 1.25 GiB
runtime...: 1 h 0 min
resolution: 고화질
bitrate...: 2 327 kb/s
audio.....: (English) E-AC-3 6ch 640 kb/s
subs......: English
url.......: https://www.tvmaze.com/shows/2029/american-crime-story

They gossip this is a quality release!

Infolink -> https://www.imdb.com/title/tt2788432/

Quote:

Mediainfo
Video
ID : 1
Format : AVC
Format/Info : Advanced Video Codec
Format profile : [email protected]
Format settings : CABAC / 4 Ref Frames
Format settings, CABAC : Yes
Format settings, Reference frames : 4 frames
Codec ID : V_MPEG4/ISO/AVC
Duration : 1 h 0 min
Bit rate mode : Constant
Bit rate : 2 327 kb/s
Nominal bit rate : 6 000 kb/s
Width : 1 280 pixels
Height : 720 pixels
Display aspect ratio : 16:9
Frame rate mode : Constant
Frame rate : 23.976 (23976/1000) FPS
Original frame rate : 23.976 (24000/1001) FPS
Color space : YUV
Chroma subsampling : 4:2:0
Bit depth : 8 bits
Scan type : Progressive
Bits/(Pixel*Frame) : 0.105
Stream size : 1 001 MiB (78%)
Writing library : AVC Coding
Default : Yes
Forced : No
Color range : Limited
Color primaries : BT.709
Transfer characteristics : BT.709
Matrix coefficients : BT.709

Audio
ID : 2
Format : E-AC-3
Format/Info : Enhanced AC-3
Commercial name : Dolby Digital Plus
Codec ID : A_EAC3
Duration : 1 h 0 min
Bit rate mode : Constant
Bit rate : 640 kb/s
Channel(s) : 6 channels
Channel layout : L R C LFE Ls Rs
Sampling rate : 48.0 kHz
Frame rate : 31.250 FPS (1536 SPF)
Bit depth : 32 bits
Compression mode : Lossy
Delay relative to video : -2 s 12 ms
Stream size : 275 MiB (22%)
Language : English
Service kind : Complete Main
Default : Yes
Forced : No

Text
ID : 3
Format : UTF-8
Codec ID : S_TEXT/UTF8
Codec ID/Info : UTF-8 Plain Text
Duration : 1 h 0 min
Bit rate : 80 b/s
Count of elements : 1190
Stream size : 35.6 KiB (0%)
Title : English
Language : English
Default : Yes
Forced : No

American.Crime.Story.S03E02.고화질.WEB.h264-GOSSIP

번역하기: 한국 한국어


<< 이 게시판에서 관련된 자료 목록 >>
0 Comments     0.0 / 0
 [구글검색] 구글에서 바다보아 검색 - 구글에서 토렌트를 검색하실 때에 검색어 뒤에 바다보아를 꼭 붙여서 검색하세요.     바다보아에서 광고중인 웹에 문제가 있다면 메뉴에 나와 있는 운영자 이메일로 연락 주십시오.     사용자님의 다운로드가 완료될 때까지 저희가 함께하겠습니다. 편안하고 즐거운 시간 되십시오.

파일마루

  

  

IMFORMATION STORE

상단으로 가운데로 하단으로